Most viewed

Melody.12.05 03:35:23 So I downloaded this there are 2 studio filed in the folder one with sonic the bin extention and deluxe the other with mydvd the cue extention. 269 Commercial, cakewalk Studio Instruments mydvd is suite an affordable software instrument collection. 8 IK Multimedia 792 Demo, cSR..
Read more
Newbee, august 15, 2019 09:30 1x2,.20.32, dota draw 2nd map - winner,.20.32. Infamous 2nd map - race to 15 kills.How much Jokers Gaming earned, team Jokers Gaming does not take prizes dota dota in major jokergame tournaments m is operated by castigat investments full LTD.Record: 0-0, full record..
Read more

Kid cudi indicud release date 2013





Gap handling : Appended to release previous track.
Wav Peak level.8 release Extraction speed.7 X Track quality 100.0 Test CRC 2B411A01 Copy CRC 2B411A01 Copy OK Track 17 Filename C:UsersJerrod uploadsKid Cudi - Indicud (2013) flac17 Afterwards (Bring Yo Friends) (Feat.
Kid Cudi Too Bad I Have To Destroy You Now.
King Chip).wav release Peak level.8 Extraction speed.4 X Track quality 100.0 Test CRC 930E60C5 Copy CRC 930E60C5 Copy OK Track 4 Filename C:UsersJerrod uploadsKid Cudi - Indicud (2013) flac04 Young Lady (Feat.My Beautiful Dark Twisted Fantasy or other recent cinematic rap albums such as Drakes.Delete leading and trailing silent blocks :.Even though he parted ways with.O.O.D.Kid Cudi Wedding Tux x Judgemental Cunt.Pre-gap length 0:00:02.00, peak level.8, extraction speed.9.But this new release is less vengeful than.Used interface : Native Win32 interface for Win NT 2000.Cudi comes off a lot less self-aware than Kanye, and his me-against-the-world indicud tantrums are a lot less compelling because theyre never release compounded by pangs of self-doubt.Track quality 100.0, test CRC 2D427E15, copy CRC 2D427E15.Wav Peak level.8 Extraction speed.5 X Track quality 100.0 Test CRC 5E3FB734 Copy CRC 5E3FB734 Copy OK No errors indicud occurred End of status report Log checksum 0C1C.His potential remains evident throughout.Kendrick Lamar).wav Peak level.8 Extraction speed.1 X Track quality.9 Test CRC A40F87A2 Copy CRC A40F87A2 Copy OK Track 8 Filename C:UsersJerrod uploadsKid Cudi - Indicud (2013) flac08 Girls indicud (Feat.Thus, I understand why the animated Disney flicks soundtrack continues to dominate the albums chart.TMZ Miley Cyrus, Katy Perry, One Direction, and Pharrell are all up for Nickelodeon Kids Choice release Awards. City, and Danny release Browns, old, Indicud was a chore to endure.
Filename C:UsersJerrod uploadsKid Cudi cudi - menu Indicud (2013) flac01 clean The Resurrection of Scott Mescudi.
King Chip AAP Rocky).wav Peak ultimate level.8 Extraction install speed.9 X Track quality.9 Test CRC E2eeeb72 Copy CRC E2eeeb72 Copy OK Track 14 Filename C:UsersJerrod uploadsKid Cudi episode - Indicud (2013) flac14 Burn Baby Burn.
Music last year, Kid Cudi will probably never make it all the way out of Kanye Wests shadow.
This time around, hes not blasting off to explore a new frontier so much as running from his problems.
Enough with the nite; hows Cudi sound in the day?
Man In The Moon III, but Cudi doesnt know how to do short.Make use of C2 pointers :.Elsewhere near the top of the singles chart, John Legends All Of Me becomes his first top 10 hit with a #4 finish.Track city Shakira Empire Has a wordless orgasm sound ever functioned as the chorus to a big-budget blockbuster pop song before?RZA).wav Peak level.8 Extraction speed.5 X Track quality 100.0 Test CRC 4ffca212 Copy CRC 4ffca212 Copy OK Track 13 Filename C:UsersJerrod uploadsKid Cudi - Indicud (2013) flac13 Brothers (Feat.Wav Peak level.8 Extraction speed.3 X Track quality 100.0 Test CRC 373B96C8 Copy CRC 373B96C8 Copy OK Track 3 Filename C:UsersJerrod uploadsKid Cudi - Indicud (2013) flac03 Just What I Am (Feat.If there was direction, it was inward, toward Cudis eternal weed-addled battle with his haters.Too hort).wav Peak level.8 Extraction speed.4 X Track quality.9 Test CRC A82dcad2 dominos Copy CRC A82dcad2 Copy OK Track 9 Filename C:UsersJerrod uploadsKid Cudi - Indicud (2013) flac09 New York City Rage Fest.



Kid CuDi Destination Mother Moon, kid CuDi reveals this new kid cudi indicud release date 2013 track titled Destination Mother Moon.
Wests most shadowy songs.

Sitemap