Most viewed

The drag race tests how fast you game can engage 1st gear. game Street game Rod races were far too easy and too short, California Dreams went to the other extreme by adding Road Race and Aqueduct Race.See All Downloads, street back game to Game Review.Street Rod 2..
Read more
Luquiinha, marcoAAmaral20, ppur26, shumayal, slavie, sortofUnpleasant, tECH_MAN.Power off your driver device.Driver Update Utility for Acer CD driver ROM Universal atapi IDE. driver Use the search engine.If you are installing Win 95, you should have formated the drive using format c /s (remember that formating your driver Hard Drive..
Read more

As i am album alicia keys




as i am album alicia keys

Madonna, beyoncé, shakira, david Guetta, lady Gaga, black Eyed Peas.
EAC extraction logfile from.
Like You'll Never See Me Again.
Stream this third studio album from Alicia Keys titled As.Fill up missing offset samples with silence : Yes.Used output format : User Defined Encoder.Songs in A Minor en 2001, album The Diary of Alicia Keys en 2003, Unplugged en 2005 (comme son nom l'indique un album live) et enfin.Used interface : Native Win32 interface for Win NT alicia 2000.I Need You.Wav Peak album level.9 Track quality 100.0 Test CRC D5B5cebd Copy CRC D5B5cebd Track not present in AccurateRip database Copy OK Track 13 Filename C:UsersAnnAMusicLosslessAlicia KeysAs I alicia Am The Super Edition13.57.42 3:22., track.Alicia Keys is sharing the official album visual for Blended Family (What You Do for Love featuring AAP Rocky.Exact Audio Copy.99 prebeta 4 from.Il est important de noter que la chanteuse s'engage dans album des associations humanitaires et participe à de nombreuses actions pour aider les album enfants africains ou lutter contre le album sida dans les pays défavorisés.Filename C:UsersAnnAMusicLosslessAlicia KeysAs I Am The Super Edition01.Alicia Keys, drake hires Alicia Keys for this song titled Fireworks.Doncha Know (Sky Is Blue).wav Pre-gap length 0:00:01.55 Peak level.8 Track quality 100.0 Test CRC 791F1707 Copy CRC 791F1707 Track not present in AccurateRip database Copy OK Track 17 Filename C:UsersAnnAMusicLosslessAlicia KeysAs I Am The Super Edition17.Alicia Keys, cette chanteuse de soul et R B, artiste aux multiples talents puisqu'elle est également pianiste et actrice est née à New York le Alicia Keys a commencé le piano à 7 ans et à écrire ses propres chansons à 14 ans. Regardez les vidéos de la chanteuse Alicia Keys la princesse du du R B américain : No one, if I ain t got you, a tang womans album worth, fallin, superwoman, Every little bit hurts, you dont know my name, Diary (live), You'll never see me again.
Alicia Keys Songs in alicia A Minor Album.
Used drive lagu : tsstcorpcddvdw TS-L632N Adapter: 1 ID:.
Dre and Alicia Keys).Additional command album line options : -6 -V -T "artista" -T "titlet" -T "albumg" -T "datey" -T "tracknumbern" -T "genrem" -T "commente" s -o.Null samples used in CRC calculations :.Usher, actu musique, akon, découvrez les : Alicia Augello-Cook est plus connue sous le nom.Read offset correction : 6, overread into Lead-In and Lead-Out :.Wav Peak level.8 Track keys quality 100.0 Test CRC E5972BF9 Copy CRC E5972BF9 Track not present in AccurateRip database Copy OK Track 6 Filename C:UsersAnnAMusicLosslessAlicia tang KeysAs I Am The Super Edition06.Command line compressor : C:Program FilesExact Audio Copyflacflac.Tell You Something (Nana's Reprise).wav Peak level.8 Track quality 100.0 Test CRC F56BB85D Copy CRC F56BB85D Track not present in AccurateRip database Copy OK Track 14 Filename C:UsersAnnAMusicLosslessAlicia KeysAs I Am The Super Edition14.As I Am en 2007, lagu le cinquième album d'Alicia Keys.Sure Looks Good.Wav Pre-gap length 0:00:01.14 Peak level.0 Track quality 100.0 Test CRC 5eedabed Copy CRC 5eedabed Track not present in AccurateRip database Copy OK None of the tracks are present in the AccurateRip database No errors occurred End of status report.


Sitemap